Warcraft.The.Beginning.2016.German.AC3.DL.1080p.BluRay.x264-MULTiPLEX DDL Download

27. November 2016 von
Warcraft.The.Beginning.2016.German.AC3.DL.1080p.BluRay.x264-MULTiPLEX Deep-Warez DDL Download
Aufrufe: 54 Hits
Vote 4 Us
Release:
Warcraft The Beginning BD
Genre:
Fantasy
Größe:
10462 MB
Passwort:
Deep-Warez.org
Sprachen:
Video Codec:
MPEG-4 H.264 / AVC
Audio Stream:
Dolby Digital 5.1
Bewertung:
Video Vorschau:
Online Stream:
Info:
Zeige NFOVerberge NFO
General
Complete name                            : F:WTB2GAD1BX-MPXWarcraft The Beginning 2016 German AC3 DL 1080p BluRay x264 - MULTiPLEXmp-warcraft-1080p.mkv
Format                                   : Matroska
Format version                           : Version 4 / Version 2
File size                                : 10.2 GiB
Duration                                 : 2 h 3 min
Overall bit rate                         : 11.9 Mb/s
Movie name                               :                                                                                                                                                                                                                                                                                                                   
Encoded date                             : UTC 2016-09-10 07:10:41
Writing application                      : mkvmerge v8.0.0 ('Til The Day That I Die') 64bit
Writing library                          : libebml v1.3.1 + libmatroska v1.4.2

Video
ID                                       : 1
Format                                   : AVC
Format/Info                              : Advanced Video Codec
Format profile                           : High@L4.1
Format settings, CABAC                   : Yes
Format settings, ReFrames                : 5 frames
Codec ID                                 : V_MPEG4/ISO/AVC
Duration                                 : 2 h 3 min
Bit rate                                 : 10.6 Mb/s
Width                                    : 1 920 pixels
Height                                   : 790 pixels
Display aspect ratio                     : 2.40:1
Frame rate mode                          : Constant
Frame rate                               : 23.976 (24000/1001) FPS
Color space                              : YUV
Chroma subsampling                       : 4:2:0
Bit depth                                : 8 bits
Scan type                                : Progressive
Bits/(Pixel*Frame)                       : 0.291
Stream size                              : 9.10 GiB (89%)
Writing library                          : x264 core 148 r2705+54 9f484c1 t_mod_Custom [8-bit@all X86_64]
Encoding settings                        : cabac=1 / ref=5 / deblock=1:-2:-2 / analyse=0x3:0x113 / me=hex / subme=8 / psy=1 / fade_compensate=0.00 / psy_rd=1.00:0.15 / mixed_ref=1 / me_range=16 / chroma_me=1 / trellis=2 / 8x8dct=1 / cqm=0 / deadzone=21,11 / fast_pskip=0 / chroma_qp_offset=-3 / threads=18 / lookahead_threads=3 / sliced_threads=0 / nr=0 / decimate=1 / interlaced=0 / bluray_compat=0 / constrained_intra=0 / fgo=0 / bframes=3 / b_pyramid=2 / b_adapt=2 / b_bias=0 / direct=3 / weightb=1 / open_gop=0 / weightp=2 / keyint=240 / keyint_min=23 / scenecut=40 / intra_refresh=0 / rc_lookahead=40 / rc=2pass / mbtree=0 / bitrate=10579 / ratetol=1.0 / qcomp=0.60 / qpmin=0:0:0 / qpmax=69:69:69 / qpstep=4 / cplxblur=20.0 / qblur=0.5 / vbv_maxrate=50000 / vbv_bufsize=50000 / nal_hrd=none / filler=0 / ip_ratio=1.40 / pb_ratio=1.30 / aq=1:1.00 / aq-sensitivity=10.00 / aq-factor=1.00:1.00:1.00 / aq2=0 / aq3=0
Language                                 : English
Default                                  : Yes
Forced                                   : No

Audio #1
ID                                       : 2
Format                                   : AC-3
Format/Info                              : Audio Coding 3
Mode extension                           : CM (complete main)
Format settings, Endianness              : Big
Codec ID                                 : A_AC3
Duration                                 : 2 h 3 min
Bit rate mode                            : Constant
Bit rate                                 : 640 kb/s
Channel(s)                               : 6 channels
Channel positions                        : Front: L C R, Side: L R, LFE
Sampling rate                            : 48.0 kHz
Frame rate                               : 31.250 FPS (1536 spf)
Compression mode                         : Lossy
Stream size                              : 564 MiB (5%)
Language                                 : German
Default                                  : Yes
Forced                                   : Yes

Audio #2
ID                                       : 3
Format                                   : AC-3
Format/Info                              : Audio Coding 3
Mode extension                           : CM (complete main)
Format settings, Endianness              : Big
Codec ID                                 : A_AC3
Duration                                 : 2 h 3 min
Bit rate mode                            : Constant
Bit rate                                 : 640 kb/s
Channel(s)                               : 6 channels
Channel positions                        : Front: L C R, Side: L R, LFE
Sampling rate                            : 48.0 kHz
Frame rate                               : 31.250 FPS (1536 spf)
Compression mode                         : Lossy
Stream size                              : 564 MiB (5%)
Language                                 : English
Default                                  : No
Forced                                   : No

Text #1
ID                                       : 4
Format                                   : UTF-8
Codec ID                                 : S_TEXT/UTF8
Codec ID/Info                            : UTF-8 Plain Text
Duration                                 : 1 h 40 min
Bit rate                                 : 0 b/s
Count of elements                        : 6
Stream size                              : 137 Bytes (0%)
Language                                 : German
Default                                  : Yes
Forced                                   : Yes

Text #2
ID                                       : 5
Format                                   : UTF-8
Codec ID                                 : S_TEXT/UTF8
Codec ID/Info                            : UTF-8 Plain Text
Duration                                 : 1 h 53 min
Bit rate                                 : 41 b/s
Count of elements                        : 1393
Stream size                              : 34.9 KiB (0%)
Language                                 : English
Default                                  : No
Forced                                   : No

Text #3
ID                                       : 6
Format                                   : VobSub
Muxing mode                              : zlib
Codec ID                                 : S_VOBSUB
Codec ID/Info                            : Picture based subtitle format used on DVDs
Duration                                 : 2 h 1 min
Bit rate                                 : 2 597 b/s
Count of elements                        : 1212
Stream size                              : 2.26 MiB (0%)
Language                                 : German
Default                                  : No
Forced                                   : No

Menu
00:00:00.000                             : en:00:00:00.000
00:09:26.483                             : en:00:09:26.483
00:15:49.407                             : en:00:15:49.407
00:22:36.146                             : en:00:22:36.146
00:29:16.171                             : en:00:29:16.171
00:38:43.321                             : en:00:38:43.321
00:46:44.093                             : en:00:46:44.093
00:53:02.679                             : en:00:53:02.679
00:56:17.332                             : en:00:56:17.332
01:02:43.927                             : en:01:02:43.927
01:07:48.314                             : en:01:07:48.314
01:12:24.549                             : en:01:12:24.549
01:17:13.045                             : en:01:17:13.045
01:22:45.669                             : en:01:22:45.669
01:26:32.145                             : en:01:26:32.145
01:32:29.669                             : en:01:32:29.669
01:40:25.102                             : en:01:40:25.102
01:47:38.118                             : en:01:47:38.118
01:51:12.833                             : en:01:51:12.833
01:53:58.832                             : en:01:53:58.832
Beschreibung:
Warcraft.The.Beginning.2016.German.AC3.DL.1080p.BluRay.x264-MULTiPLEX
In Azeroth, dem Reich der Menschen, herrscht seit vielen Jahren Frieden. Doch urplötzlich sieht sich seine Zivilisation von einer furchteinflößenden Rasse bedroht: Ork-Krieger haben ihre, dem Untergang geweihte, Heimat Draenor verlassen, um sich andernorts eine neue aufzubauen. Als sich ein Portal öffnet, um die beiden Welten miteinander zu verbinden, bricht ein unbarmherziger und erbitterter Krieg um die Vorherrschaft in Azeroth los, der auf beiden Seiten große Opfer fordert. Die vermeintlichen Gegner ahnen jedoch nicht, dass bald schon eine weitere Bedrohung auftaucht, die beide Völker vernichten könnte. Statt sich zu bekämpfen, müssen sie nun zusammenhalten. Ein Bündnis wird geschlossen und zwei Helden, ein Mensch und ein Ork, machen sich gemeinsam auf den Weg, dem Bösen im Kampf entgegenzutreten – für ihre Familien, ihre Völker und ihre Heimat. Zwei Welten. Eine Heimat.
Direct Download Links | DDL-Links für Warcraft The Beginning BD

Ähnliche Releases der Kategorie