Teenage.Mutant.Ninja.Turtles.2.Out.of.the.Shadows.German.AC3.Dubbed.WebHD.x264-xTM DDL Download

5. September 2016 von
Teenage.Mutant.Ninja.Turtles.2.Out.of.the.Shadows.German.AC3.Dubbed.WebHD.x264-xTM Deep-Warez DDL Download
Aufrufe: 65 Hits
Vote 4 Us
Release:
Teenage Mutant Ninja Turtles 2 Out of the Shadows
Genre:
Action
Größe:
1479 MB
Passwort:
Deep-Warez.org
Sprachen:
Video Codec:
MPEG-4 H.264 / AVC
Audio Stream:
Dolby Digital 5.1
Bewertung:
Video Vorschau:
Online Stream:
Info:
Zeige NFOVerberge NFO
Video
ID : 1
Format : AVC
Format/Info : Advanced Video Codec
Format profile : Main@L3.0
Format settings, CABAC : Yes
Format settings, ReFrames : 4 frames
Codec ID : avc1
Codec ID/Info : Advanced Video Coding
Duration : 1h 52mn
Bit rate mode : Variable
Bit rate : 1 454 Kbps
Width : 720 pixels
Height : 300 pixels
Display aspect ratio : 2.40:1
Frame rate mode : Variable
Frame rate : 23.976 fps
Minimum frame rate : 22.727 fps
Maximum frame rate : 24.390 fps
Color space : YUV
Chroma subsampling : 4:2:0
Bit depth : 8 bits
Scan type : Progressive
Bits/(Pixel*Frame) : 0.281
Stream size : 1.14 GiB (79)
Writing library : x264 core 130 r2273 b3065e6
Encoding settings : cabac=1 / ref=1 / deblock=1:0:0 / analyse=0x1:0x111 / me=hex / subme=2 / psy=1 / psy_rd=1,00:0,00 / mixed_ref=0 / me_range=16 / chroma_me=1 / trellis=0 / 8x8dct=0 / cqm=0 / deadzone=21,11 / fast_pskip=1 / chroma_qp_offset=0 / threads=12 / lookahead_threads=2 / sliced_threads=0 / nr=0 / decimate=1 / interlaced=0 / bluray_compat=0 / constrained_intra=0 / bframes=3 / b_pyramid=2 / b_adapt=1 / b_bias=0 / direct=1 / weightb=1 / open_gop=0 / weightp=1 / keyint=240 / keyint_min=24 / scenecut=40 / intra_refresh=0 / rc_lookahead=10 / rc=crf / mbtree=1 / crf=19,0 / qcomp=0,60 / qpmin=0 / qpmax=69 / qpstep=4 / ip_ratio=1,40 / aq=1:1,00
Encoded date : UTC 2016-08-30 04:44:40
Tagged date : UTC 2016-08-30 05:12:49
Color primaries : BT.709-5, BT.1361, IEC 61966-2-4, SMPTE RP177
Transfer characteristics : BT.709-5, BT.1361
Matrix coefficients : BT.709-5, BT.1361, IEC 61966-2-4 709, SMPTE RP177

Audio
ID : 2
Format : AC-3
Format/Info : Audio Coding 3
Mode extension : CM (complete main)
Format settings, Endianness : Big
Codec ID : ac-3
Duration : 1h 52mn
Bit rate mode : Constant
Bit rate : 384 Kbps
Channel(s) : 2 channels
Channel positions : Front: L R
Sampling rate : 48.0 KHz
Bit depth : 16 bits
Compression mode : Lossy
Delay relative to video : -83ms
Stream size : 308 MiB (21)
Language : German
Encoded date : UTC 2016-08-30 04:44:40
Tagged date : UTC 2016-08-30 05:12:49
Beschreibung:
Teenage.Mutant.Ninja.Turtles.2.Out.of.the.Shadows.German.AC3.Dubbed.WebHD.x264-xTM
Sie kommen zurück: April O’Neil (Megan Fox) und die Hero Turtles Donatello (Jeremy Howard), Leonardo (Johnny Knoxville), Raphael (Alan Ritchson) und Michelangelo (Noel Fisher) – und diesmal müssen sie es neben dem bösen Shredder auch gegen Bebop und Rocksteady aufnehmen, im Kampf gegen das Böse: Erzfeind Shredder (Brian Tee) hetzt den Kultschildkröten seine Kampf-Mutanten Bebop (Gary Anthony Williams) und Rocksteady (Stephen Farrelly) auf den Panzer. Während sich die Turtles in Topform bringen, um es mit Shredder und seiner neuen Gang aufnehmen zu können, stehen sie plötzlich und ohne Vorwarnung einem viel bösartigeren Gegner gegenüber: dem berühmt-berüchtigten Krang. Doch die vier grünen Helden bekommen Unterstützung von Casey Jones (Stephen Amell), den nur ein Lächeln von April O’Neil in die Knie zwingen kann. Mit vereinter Turtlepower mischen die sechs ihre Gegner mächtig auf – mit noch mehr Witz, Coolness und spektakulären Action-Szenen.
Direct Download Links | DDL-Links für Teenage Mutant Ninja Turtles 2 Out of the Shadows

Ähnliche Releases der Kategorie