The.Huntsman.and.the.Ice.Queen.Kinofassung.2016.German.AC3.HDRip.x264-FuN DDL Download

6. September 2016 von
The.Huntsman.and.the.Ice.Queen.Kinofassung.2016.German.AC3.HDRip.x264-FuN Deep-Warez DDL Download
Aufrufe: 45 Hits
Vote 4 Us
Release:
The Huntsman & The Ice Queen BD-RIP
Genre:
Action
Laufzeit:
113 Min.
Größe:
1555 MB
Passwort:
Deep-Warez.org
Sprachen:
Video Codec:
MPEG-4 H.264 / AVC
Audio Stream:
Dolby Digital 5.1
Bewertung:
Video Vorschau:
Online Stream:
Hinweise:
Theatrical
Info:
Zeige NFOVerberge NFO
General
Format                                   : MPEG-4
Format profile                           : Base Media
Codec ID                                 : isom
File size                                : 1.52 GiB
Duration                                 : 1h 53mn
Overall bit rate                         : 1 908 Kbps
Encoded date                             : UTC 2016-08-09 05:05:49
Tagged date                              : UTC 2016-08-09 05:05:49

Video
ID                                       : 1
Format                                   : AVC
Format/Info                              : Advanced Video Codec
Format settings, CABAC                   : Yes
Format settings, ReFrames                : 4 frames
Codec ID                                 : avc1
Codec ID/Info                            : Advanced Video Coding
Duration                                 : 1h 53mn
Bit rate                                 : 1 450 Kbps
Maximum bit rate                         : 8 645 Kbps
Width                                    : 960 pixels
Height                                   : 400 pixels
Display aspect ratio                     : 2.40:1
Frame rate mode                          : Variable
Frame rate                               : 23.976 fps
Minimum frame rate                       : 23.810 fps
Maximum frame rate                       : 24.390 fps
Color space                              : YUV
Chroma subsampling                       : 4:2:0
Bit depth                                : 8 bits
Scan type                                : Progressive
Bits/(Pixel*Frame)                       : 0.157
Stream size                              : 1.16 GiB (76%)
Writing library                          : x264 core 142 r2479 dd79a61
Encoding settings                        : cabac=1 / ref=3 / deblock=1:0:0 / analyse=0x3:0x113 / me=hex / subme=7 / psy=1 / psy_rd=1.00:0.00 / mixed_ref=1 / me_range=16 / chroma_me=1 / trellis=1 / 8x8dct=1 / cqm=0 / deadzone=21,11 / fast_pskip=1 / chroma_qp_offset=-2 / threads=6 / lookahead_threads=1 / sliced_threads=0 / nr=0 / decimate=1 / interlaced=0 / bluray_compat=0 / constrained_intra=0 / bframes=3 / b_pyramid=2 / b_adapt=1 / b_bias=0 / direct=1 / weightb=1 / open_gop=0 / weightp=2 / keyint=240 / keyint_min=24 / scenecut=40 / intra_refresh=0 / rc_lookahead=40 / rc=abr / mbtree=1 / bitrate=1450 / ratetol=1.0 / qcomp=0.60 / qpmin=0 / qpmax=69 / qpstep=4 / ip_ratio=1.40 / aq=1:1.00
Encoded date                             : UTC 2036-02-06 06:28:16
Tagged date                              : UTC 2016-08-09 05:32:00
Color range                              : Limited
Color primaries                          : BT.709
Transfer characteristics                 : BT.709
Matrix coefficients                      : BT.709

Audio
ID                                       : 2
Format                                   : AC-3
Format/Info                              : Audio Coding 3
Mode extension                           : CM (complete main)
Format settings, Endianness              : Big
Codec ID                                 : ac-3
Duration                                 : 1h 53mn
Bit rate mode                            : Constant
Bit rate                                 : 448 Kbps
Channel(s)                               : 6 channels
Channel positions                        : Front: L C R, Side: L R, LFE
Sampling rate                            : 48.0 KHz
Bit depth                                : 16 bits
Compression mode                         : Lossy
Stream size                              : 365 MiB (23%)
Language                                 : German
Encoded date                             : UTC 2016-08-09 05:24:09
Tagged date                              : UTC 2016-08-09 05:32:00

Beschreibung:
The.Huntsman.and.the.Ice.Queen.Kinofassung.2016.German.AC3.HDRip.x264-FuN
Einige Jahre bevor Snow White sich gegen die böse Königin Ravenna auflehnt, dienen Huntsman Eric und die Kriegerin Sara unter der Eiskönigin Freya. Die verlangt von ihren Soldaten, der Liebe abzuschwören, doch Eric und Sara können ihre Gefühle füreinander nicht verleugnen. Als Freya und ihre Schwester Ravenna gemeinsam das Königreich bedrohen, liegt es an Eric und Sara, die Welt vor der Dunkelheit zu retten.
Direct Download Links | DDL-Links für The Huntsman & The Ice Queen BD-RIP

Ähnliche Releases der Kategorie