Ein.toedliches.Versprechen.Fuer.immer.und.ewig.2016.German.720p.BluRay.x264-SPiCY DDL Download

24. September 2016 von
Ein.toedliches.Versprechen.Fuer.immer.und.ewig.2016.German.720p.BluRay.x264-SPiCY Deep-Warez DDL Download
Aufrufe: 81 Hits
Vote 4 Us
Release:
Ein toedliches Versprechen Fuer immer und ewig BD
Genre:
Thriller
Laufzeit:
91 Min.
Größe:
1902 MB
Passwort:
Deep-Warez.org
Sprachen:
Video Codec:
MPEG-4 H.264 / AVC
Audio Stream:
DTS 5.1
Bewertung:
Video Vorschau:
Online Stream:
Info:
Zeige NFOVerberge NFO
General
Unique ID                      :                                         (0x                     8F388E22850)
Complete name                  : spy-toedlichesversprechen-720p.mkv
Format                         : Matroska
Format version                 : Version 4 / Version 2
File size                      : 1.84 GiB
Duration                       : 1h 31mn
Overall bit rate               : 2 885 Kbps
Encoded date                   : UTC 2016-09-21 15:59:19
Writing application            : mkvmerge v9.2.0 ('Photograph') 64bit
Writing library                : libebml v1.3.3 + libmatroska v1.4.4
DURATION                       : 00:48:27.
NUMBER_OF_FRAMES               : 6
NUMBER_OF_BYTES                : 176
_STATISTICS_WRITING_APP        : mkvmerge v9.2.0 ('Photograph') 64bit
_STATISTICS_WRITING_DATE_UTC   : 2016-09-21 15:59:19
_STATISTICS_TAGS               : BPS DURATION NUMBER_OF_FRAMES NUMBER_OF_BYTES

Video
ID                             : 1
Format                         : AVC
Format/Info                    : Advanced Video Codec
Format profile                 : High@L4.1
Format settings, CABAC         : Yes
Format settings, ReFrames      : 5 frames
Codec ID                       : V_MPEG4/ISO/AVC
Duration                       : 1h 31mn
Bit rate                       : 1 318 Kbps
Width                          : 1 280 pixels
Height                         : 536 pixels
Display aspect ratio           : 2.40:1
Frame rate mode                : Constant
Frame rate                     : 23.976 fps
Color space                    : YUV
Chroma subsampling             : 4:2:0
Bit depth                      : 8 bits
Scan type                      : Progressive
Bits/(Pixel*Frame)             : 0.080
Stream size                    : 859 MiB (46%)
Writing library                : x264 core 148 r2705 3f5ed56
Encoding settings              : cabac=1 / ref=5 / deblock=1:-1:-1 / analyse=0x3:0x113 / me=umh / subme=7 / psy=1 / psy_rd=1.00:0.00 / mixed_ref=1 / me_range=16 / chroma_me=1 / trellis=1 / 8x8dct=1 / cqm=0 / deadzone=21,11 / fast_pskip=0 / chroma_qp_offset=-2 / threads=12 / lookahead_threads=2 / sliced_threads=0 / nr=0 / decimate=1 / interlaced=0 / bluray_compat=0 / constrained_intra=0 / bframes=3 / b_pyramid=2 / b_adapt=1 / b_bias=0 / direct=3 / weightb=1 / open_gop=0 / weightp=2 / keyint=250 / keyint_min=23 / scenecut=40 / intra_refresh=0 / rc_lookahead=40 / rc=crf / mbtree=1 / crf=20.0 / qcomp=0.60 / qpmin=0 / qpmax=69 / qpstep=4 / ip_ratio=1.40 / aq=1:1.00
Default                        : Yes
Forced                         : No

Audio
ID                             : 2
Format                         : DTS
Format/Info                    : Digital Theater Systems
Mode                           : 16
Format settings, Endianness    : Big
Codec ID                       : A_DTS
Duration                       : 1h 31mn
Bit rate mode                  : Constant
Bit rate                       : 1 509 Kbps
Channel(s)                     : 6 channels
Channel positions              : Front: L C R, Side: L R, LFE
Sampling rate                  : 48.0 KHz
Bit depth                      : 24 bits
Compression mode               : Lossy
Stream size                    : 984 MiB (52%)
Language                       : German
Default                        : Yes
Forced                         : No

Text
ID                             : 3
Format                         : UTF-8
Codec ID                       : S_TEXT/UTF8
Codec ID/Info                  : UTF-8 Plain Text
Language                       : German
Default                        : Yes
Forced                         : No

http://www.imdb.com/title/tt3701714/
Beschreibung:
Ein.toedliches.Versprechen.Fuer.immer.und.ewig.2016.German.720p.BluRay.x264-SPiCY
Wie weit würdest Du gehen, um die Wahrheit zu vertuschen?Tara will es vor ihrer Hochzeit in New Orleans mit ihren Mädels noch mal richtig krachen lassen – dabei trifft sie auf den gutaussehenden Barkeeper Patrick und beide verbringen eine heiße Nacht miteinander. Zurück in L.A. wirft sich Tara, von schlechtem Gewissen getrieben, voll und ganz in die Vorbereitung für ihre bevorstehende Hochzeit. Aber dann steht auf einmal Patrick vor der Türe – und er hat ganz und gar nicht vor, sich abwimmeln zu lassen.
Direct Download Links | DDL-Links für Ein toedliches Versprechen Fuer immer und ewig BD

Ähnliche Releases der Kategorie