Die.Fraggles.S01-S05.COMPLETE.German.FS.DVDRip.XviD DDL Download

29. August 2016 von
Die.Fraggles.S01-S05.COMPLETE.German.FS.DVDRip.XviD Deep-Warez DDL Download
Aufrufe: 223 Hits
Vote 4 Us
Release:
Die Fraggles S01-S05 DVD-RIP
Genre:
n/a
Größe:
18262 MB
Passwort:
Deep-Warez.org
Sprachen:
Video Codec:
MPEG-4 DivX / Xvid
Audio Stream:
Dolby Digital 5.1
Bewertung:
Video Vorschau:
Online Stream:
Info:
Zeige NFOVerberge NFO
Format: AVI
Format/Info: Audio Video Interleave
File size: 297 MiB
Duration: 24mn 53s
Overall bit rate mode: Variable
Overall bit rate: 1 670 Kbps
Writing application: VirtualDubMod 1.5.10.2 (build 2540/release)
Writing library: VirtualDubMod build 2540/release

Video
ID: 0
Format: MPEG-4 Visual
Format profile: Advanced Simple@L5
Format settings, BVOP: 1
Format settings, QPel: No
Format settings, GMC: No warppoints
Format settings, Matrix: Default (H.263)
Codec ID: XVID
Codec ID/Hint: XviD
Duration: 24mn 53s
Bit rate: 1 504 Kbps
Width: 640 pixels
Height: 480 pixels
Display aspect ratio: 1.276
Frame rate: 25.000 fps
Color space: YUV
Chroma subsampling: 4:2:0
Bit depth: 8 bits
Scan type: Progressive
Compression mode: Lossy
Bits/(Pixel*Frame): 0.196
Stream size: 268 MiB (90)
Writing library: XviD 1.2.1 (UTC 2008-12-04)

Audio
ID: 1
Format: MPEG Audio
Format version: Version 1
Format profile: Layer 3
Mode: Joint stereo
Mode extension: MS Stereo
Codec ID: 55
Codec ID/Hint: MP3
Duration: 24mn 53s
Bit rate mode: Variable
Bit rate: 153 Kbps
Minimum bit rate: 32.0 Kbps
Channel(s): 2 channels
Sampling rate: 48.0 KHz
Compression mode: Lossy
Stream size: 27.3 MiB (9)
Alignment: Aligned on interleaves
Interleave, duration: 24 ms (0.60 video frame)
Interleave, preload duration: 120 ms
Writing library: LAME3.98r
Encoding settings: -m j -V 4 -q 2 -lowpass 17.5vbr-new -b 32
Beschreibung:
Die.Fraggles.S01-S05.COMPLETE.German.FS.DVDRip.XviD
Unter der Werkstatt des Erfinders Doc befindet sich die Höhle der Fraggles. Diese kleinen, menschenähnlichen Wesen leben unbekümmert in den Tag hinein, sind aber auch gelegentlichen Abenteuern nicht abgeneigt. Mutigster Fraggle ist hierbei Onkel Matt, der die Fragglehöhle verlassen hat und regelmig Postkarten mit seinen Erlebnissen da draußen schickt. Ebenfalls in Fraggle Rock leben die Doozers, die tagein, tagaus nichts anderes tun als Brücken und Türme aus Zucker zu errichten, die von den Fraggles gerne gegessen werden. Wie auch die Radieschen, die sich die Fraggles aus dem Garten der Gorgs holen.
Direct Download Links | DDL-Links für Die Fraggles S01-S05 DVD-RIP

Ähnliche Releases der Kategorie