Deadpool.2016.German.DTSD.2160p.Ultra.HD.BluRay.x264-marban DDL Download

24. August 2016 von
Deadpool.2016.German.DTSD.2160p.Ultra.HD.BluRay.x264-marban Deep-Warez DDL Download
Aufrufe: 148 Hits
Vote 4 Us
Release:
Deadpool
Genre:
Abenteuer, Action, Komödie
Größe:
31159 MB
Passwort:
Deep-Warez.org
Sprachen:
Video Codec:
MKV
Bewertung:
Video Vorschau:
Online Stream:
Hinweise:
Auflösung:
3840x1608
Bitrate:
German DTS
Video Source:
2160p
Info:
Zeige NFOVerberge NFO
General
Unique ID                                : 246719788768512731930098240909943807425 (0xB99C80BE763BF584A35863BC17C49DC1)
Complete name                            : Deadpool.2016.German.DTSD.2160p.Ultra.HD.BluRay.x264-marban.mkv
Format                                   : Matroska
Format version                           : Version 4 / Version 2
File size                                : 30.3 GiB
Duration                                 : 1h 48mn
Overall bit rate                         : 40.1 Mbps
Encoded date                             : UTC 2016-06-21 08:03:00
Writing application                      : mkvmerge v9.2.0 ('Photograph') 64bit
Writing library                          : libebml v1.3.3 + libmatroska v1.4.4

Video
ID                                       : 1
Format                                   : AVC
Format/Info                              : Advanced Video Codec
Format profile                           : High@L5.1
Format settings, CABAC                   : Yes
Format settings, ReFrames                : 5 frames
Codec ID                                 : V_MPEG4/ISO/AVC
Duration                                 : 1h 48mn
Bit rate                                 : 34.4 Mbps
Width                                    : 3 840 pixels
Height                                   : 1 608 pixels
Display aspect ratio                     : 2.40:1
Frame rate mode                          : Constant
Frame rate                               : 23.976 (24000/1001) fps
Color space                              : YUV
Chroma subsampling                       : 4:2:0
Bit depth                                : 8 bits
Scan type                                : Progressive
Bits/(Pixel*Frame)                       : 0.233
Stream size                              : 26.0 GiB (86%)
Writing library                          : x264 core 148 r2638 7599210
Encoding settings                        : cabac=1 / ref=5 / deblock=1:-1:-1 / analyse=0x3:0x133 / me=umh / subme=10 / psy=1 / psy_rd=1.00:0.15 / mixed_ref=1 / me_range=48 / chroma_me=1 / trellis=2 / 8x8dct=1 / cqm=0 / deadzone=21,11 / fast_pskip=1 / chroma_qp_offset=-3 / threads=12 / lookahead_threads=2 / sliced_threads=0 / nr=0 / decimate=0 / interlaced=0 / bluray_compat=0 / constrained_intra=0 / bframes=8 / b_pyramid=2 / b_adapt=2 / b_bias=0 / direct=3 / weightb=1 / open_gop=0 / weightp=2 / keyint=240 / keyint_min=23 / scenecut=40 / intra_refresh=0 / rc_lookahead=60 / rc=crf / mbtree=1 / crf=17.0 / qcomp=0.70 / qpmin=0 / qpmax=69 / qpstep=4 / vbv_maxrate=300000 / vbv_bufsize=300000 / crf_max=0.0 / nal_hrd=none / filler=0 / ip_ratio=1.40 / aq=1:0.90
Default                                  : Yes
Forced                                   : No

Audio #1
ID                                       : 2
Format                                   : DTS
Format/Info                              : Digital Theater Systems
Mode                                     : 16
Format settings, Endianness              : Big
Codec ID                                 : A_DTS
Duration                                 : 1h 48mn
Bit rate mode                            : Constant
Bit rate                                 : 768 Kbps
Channel(s)                               : 6 channels
Channel positions                        : Front: L C R, Side: L R, LFE
Sampling rate                            : 48.0 KHz
Frame rate                               : 93.750 fps (512 spf)
Bit depth                                : 24 bits
Compression mode                         : Lossy
Stream size                              : 594 MiB (2%)
Title                                    : German DTS 5.1 768 kbps | GER BD
Language                                 : German
Default                                  : No
Forced                                   : Yes

Audio #2
ID                                       : 3
Format                                   : DTS
Format/Info                              : Digital Theater Systems
Format profile                           : MA / ES Matrix / Core
Mode                                     : 16
Format settings, Endianness              : Big
Codec ID                                 : A_DTS
Duration                                 : 1h 48mn
Bit rate mode                            : Variable / Constant / Constant
Bit rate                                 : 4 892 Kbps / 1 509 Kbps / 1 509 Kbps
Channel(s)                               : 8 channels / 7 channels / 6 channels
Channel positions                        : Front: L C R, Side: L R, Back: L R, LFE / Front: L C R, Side: L R, Back: C, LFE / Front: L C R, Side: L R, LFE
Sampling rate                            : 48.0 KHz
Frame rate                               : 93.750 fps (512 spf)
Bit depth                                : 24 bits
Compression mode                         : Lossless / Lossy / Lossy
Stream size                              : 3.69 GiB (12%)
Title                                    : English DTS-HD MA 5.1 4801 kbps | US BD
Language                                 : English
Default                                  : Yes
Forced                                   : No

Text #1
ID                                       : 4
Format                                   : PGS
Muxing mode                              : zlib
Codec ID                                 : S_HDMV/PGS
Codec ID/Info                            : Picture based subtitle format used on BDs/HD-DVDs
Duration                                 : 1h 47mn
Bit rate                                 : 10.5 Kbps
Count of elements                        : 2750
Stream size                              : 8.04 MiB (0%)
Language                                 : German
Default                                  : No
Forced                                   : No

Text #2
ID                                       : 5
Format                                   : PGS
Muxing mode                              : zlib
Codec ID                                 : S_HDMV/PGS
Codec ID/Info                            : Picture based subtitle format used on BDs/HD-DVDs
Duration                                 : 1h 47mn
Bit rate                                 : 13.9 Kbps
Count of elements                        : 3704
Stream size                              : 10.7 MiB (0%)
Language                                 : English
Default                                  : Yes
Forced                                   : No

Text #3
ID                                       : 6
Format                                   : PGS
Muxing mode                              : zlib
Codec ID                                 : S_HDMV/PGS
Codec ID/Info                            : Picture based subtitle format used on BDs/HD-DVDs
Duration                                 : 1h 47mn
Bit rate                                 : 108 bps
Count of elements                        : 28
Stream size                              : 85.0 KiB (0%)
Title                                    : German Forced
Language                                 : German
Default                                  : No
Forced                                   : No

Text #4
ID                                       : 7
Format                                   : PGS
Muxing mode                              : zlib
Codec ID                                 : S_HDMV/PGS
Codec ID/Info                            : Picture based subtitle format used on BDs/HD-DVDs
Duration                                 : 1h 47mn
Bit rate                                 : 23.6 Kbps
Count of elements                        : 3988
Stream size                              : 18.2 MiB (0%)
Title                                    : English Forced
Language                                 : English
Default                                  : No
Forced                                   : Yes

Menu
00:00:00.000                             : en:00:00:00.000
00:03:04.726                             : en:00:03:04.726
00:05:53.019                             : en:00:05:53.019
00:09:30.820                             : en:00:09:30.820
00:13:19.090                             : en:00:13:19.090
00:16:48.716                             : en:00:16:48.716
00:20:12.545                             : en:00:20:12.545
00:22:06.408                             : en:00:22:06.408
00:27:09.628                             : en:00:27:09.628
00:31:58.959                             : en:00:31:58.959
00:36:51.709                             : en:00:36:51.709
00:41:06.172                             : en:00:41:06.172
00:44:45.766                             : en:00:44:45.766
00:46:56.605                             : en:00:46:56.605
00:50:10.966                             : en:00:50:10.966
00:53:18.028                             : en:00:53:18.028
00:55:33.038                             : en:00:55:33.038
00:59:07.753                             : en:00:59:07.753
01:03:05.240                             : en:01:03:05.240
01:07:06.439                             : en:01:07:06.439
01:09:15.568                             : en:01:09:15.568
01:12:29.720                             : en:01:12:29.720
01:16:46.393                             : en:01:16:46.393
01:20:43.714                             : en:01:20:43.714
01:25:53.398                             : en:01:25:53.398
01:31:03.792                             : en:01:31:03.792
01:34:46.973                             : en:01:34:46.973
01:39:52.737                             : en:01:39:52.737


Beschreibung:
Deadpool.2016.German.DTSD.2160p.Ultra.HD.BluRay.x264-marban
Der ehemalige Elitesoldat Wade Wilson verdingt sich als Söldner, als er Opfer eines gefährlichen Experiments wird und in den Superhelden Deadpool verwandelt wird. Ausgestattet mit schnellwirkenden Selbsthheilungskräften und einem äußerst schrägen Humor macht er Jagd auf den Mann, der beinahe sein Leben zerstört hätte.
GeneralWidth : 3 840 pixels Height : 1 608 pixels Title : German DTS 5.1 768 kbps | GER BD Language : German
Direct Download Links | DDL-Links für Deadpool

Ähnliche Releases der Kategorie