Code.Of.Honor.Rache.Ist.Sein.Gesetz.German.2016.AC3.BDRiP.XVID-OMS DDL Download

16. October 2016 von
Code.Of.Honor.Rache.Ist.Sein.Gesetz.German.2016.AC3.BDRiP.XVID-OMS Deep-Warez DDL Download
Aufrufe: 34 Hits
Vote 4 Us
Release:
Code Of Honor Rache Ist Sein Gesetz BD-RIP
Genre:
Action
Laufzeit:
102 Min.
Größe:
1624 MB
Passwort:
Deep-Warez.org
Sprachen:
Video Codec:
MPEG-4 DivX / Xvid
Audio Stream:
Dolby Digital 5.1
Bewertung:
Video Vorschau:
Online Stream:
Info:
Zeige NFOVerberge NFO
General
Format                                   : AVI
Format/Info                              : Audio Video Interleave
Format profile                           : OpenDML
File size                                : 1.59 GiB
Duration                                 : 1h 46mn
Overall bit rate                         : 2 129 Kbps
Movie name                               : Code.Of.Honor.Rache.Ist.Sein.Gesetz.German.2016.AC3.BDRiP.XVID-OMS
Genre                                    : Action
Recorded date                            : 2016
Writing application                      : Lavf57.2.100

Video
ID                                       : 0
Format                                   : MPEG-4 Visual
Format settings, BVOP                    : No
Format settings, QPel                    : No
Format settings, GMC                     : No warppoints
Format settings, Matrix                  : Default (H.263)
Codec ID                                 : DIVX
Codec ID/Info                            : Project Mayo
Codec ID/Hint                            : DivX 4
Duration                                 : 1h 46mn
Bit rate                                 : 1 669 Kbps
Width                                    : 720 pixels
Height                                   : 404 pixels
Display aspect ratio                     : 16:9
Frame rate                               : 24.000 fps
Color space                              : YUV
Chroma subsampling                       : 4:2:0
Bit depth                                : 8 bits
Scan type                                : Progressive
Compression mode                         : Lossy
Bits/(Pixel*Frame)                       : 0.239
Stream size                              : 1.24 GiB (78%)
Writing library                          : XviD 67

Audio
ID                                       : 1
Format                                   : AC-3
Format/Info                              : Audio Coding 3
Mode extension                           : CM (complete main)
Format settings, Endianness              : Big
Codec ID                                 : 2000
Duration                                 : 1h 46mn
Bit rate mode                            : Constant
Bit rate                                 : 448 Kbps
Channel(s)                               : 6 channels
Channel positions                        : Front: L C R, Side: L R, LFE
Sampling rate                            : 48.0 KHz
Bit depth                                : 16 bits
Compression mode                         : Lossy
Stream size                              : 342 MiB (21%)
Alignment                                : Aligned on interleaves
Interleave, duration                     : 32 ms (0.77 video frame)
Language                                 : German
Beschreibung:
Code.Of.Honor.Rache.Ist.Sein.Gesetz.German.2016.AC3.BDRiP.XVID-OMS
Endlich wieder ein echter Steven Seagal Film -mit der original Synchronstimme Ekkehardt Belle Steven Seagal als Ein-Mann-Armee gegen Korruption und Verbrechen - der einzige Weg ihn aufzuhalten, ist ihn zu töten. Rache ist keine Frage der Ehre - aber Rache ist sein Gesetz!
Direct Download Links | DDL-Links für Code Of Honor Rache Ist Sein Gesetz BD-RIP

Ähnliche Releases der Kategorie