I Came Inside My Sister XXX 720p WEBRip x264 – TBP DDL Download

17. September 2016 von
I Came Inside My Sister XXX 720p WEBRip x264 – TBP Deep-Warez DDL Download
Aufrufe: 111 Hits
Vote 4 Us
Release:
I Came Inside My Sister
Genre:
Anal
Größe:
3526 MB
Passwort:
Deep-Warez.org
Sprachen:
Video Codec:
MKV
Bewertung:
Video Vorschau:
Online Stream:
Hinweise:
Auflösung:
1280x720
Bitrate:
4102
Video Source:
BluRay
Info:
Zeige NFOVerberge NFO
THE.BEST.PORN.GIVES

I.Came.Inside.My.Sister.XXX.720p.WEBRip.x264-TBP

WEBSITE     : http://www.data18.com/movies/1131549
TYPE        :
SIZE        : 73 x 50MB

General
Complete name                            : tbp.cuminsis1.mp4
Format                                   : MPEG-4
Format profile                           : Base Media
Codec ID                                 : isom
File size                                : 3.39 GiB
Duration                                 : 1h 58mn
Overall bit rate                         : 4 102 Kbps
Writing application                      : Lavf56.4.101

Video
ID                                       : 1
Format                                   : AVC
Format/Info                              : Advanced Video Codec
Format profile                           : High@L3.1
Format settings, CABAC                   : Yes
Format settings, ReFrames                : 4 frames
Codec ID                                 : avc1
Codec ID/Info                            : Advanced Video Coding
Duration                                 : 1h 58mn
Bit rate                                 : 4 000 Kbps
Width                                    : 1 280 pixels
Height                                   : 720 pixels
Display aspect ratio                     : 16:9
Frame rate mode                          : Constant
Frame rate                               : 29.000 fps
Color space                              : YUV
Chroma subsampling                       : 4:2:0
Bit depth                                : 8 bits
Scan type                                : Progressive
Bits/(Pixel*Frame)                       : 0.150
Stream size                              : 3.28 GiB (97%)
Writing library                          : x264 core 130 r2274 c832fe9
Encoding settings                        : cabac=1 / ref=3 / deblock=1:0:0 / analyse=0x3:0x113 / me=hex / subme=7 / psy=1 / psy_rd=1.00:0.00 / mixed_ref=1 / me_range=16 / chroma_me=1 / trellis=1 / 8x8dct=1 / cqm=0 / deadzone=21,11 / fast_pskip=1 / chroma_qp_offset=-2 / threads=24 / lookahead_threads=4 / sliced_threads=0 / nr=0 / decimate=1 / interlaced=0 / bluray_compat=0 / constrained_intra=0 / bframes=3 / b_pyramid=2 / b_adapt=1 / b_bias=0 / direct=1 / weightb=1 / open_gop=0 / weightp=2 / keyint=250 / keyint_min=25 / scenecut=40 / intra_refresh=0 / rc_lookahead=40 / rc=abr / mbtree=1 / bitrate=4000 / ratetol=1.0 / qcomp=0.60 / qpmin=0 / qpmax=69 / qpstep=4 / ip_ratio=1.40 / aq=1:1.00

Audio
ID                                       : 2
Format                                   : AAC
Format/Info                              : Advanced Audio Codec
Format profile                           : LC
Codec ID                                 : 40
Duration                                 : 1h 58mn
Duration_LastFrame                       : 21ms
Bit rate mode                            : Constant
Bit rate                                 : 128 Kbps
Channel(s)                               : 2 channels
Channel positions                        : Front: L R
Sampling rate                            : 48.0 KHz
Compression mode                         : Lossy
Stream size                              : 109 MiB (3%)

REVIEW-URL  :

Greetz to our good friends in GUSH
And the others which make this fun
Beschreibung:
I Came Inside My Sister XXX 720p WEBRip x264 – TBP
It's time for another hot session of fully loaded stepsisters! Watch Molly Mae, Brittany Shae, Shavelle Love and Sara St. Clair have a naughty sexual encounter with their stepbrothers and finish off with a delicious cream pie! When you have stepsisters that look this good, who wouldn't want to cum inside them?
Direct Download Links | DDL-Links für I Came Inside My Sister

Ähnliche Releases der Kategorie