Basic.Instinct.1992.German.BluRay.1080p.DL.DTS.VC-1.Remux-iND DDL Download

8. September 2016 von
Basic.Instinct.1992.German.BluRay.1080p.DL.DTS.VC-1.Remux-iND Deep-Warez DDL Download
Aufrufe: 60 Hits
Vote 4 Us
Release:
Basic Instinct BD
Genre:
Thriller
Laufzeit:
128 Min.
Größe:
18332 MB
Passwort:
Deep-Warez.org
Sprachen:
Video Codec:
MPEG-4 H.264 / AVC
Audio Stream:
Dolby Digital 5.1
Bewertung:
Video Vorschau:
Online Stream:
Info:
Zeige NFOVerberge NFO
General
Format                                   : Matroska
Format version                           : Version 4 / Version 2
File size                                : 17.9 GiB
Duration                                 : 2h 8mn
Overall bit rate                         : 20.0 Mbps
Encoded date                             : UTC 2016-08-19 16:14:34
Writing application                      : mkvmerge v9.2.0 ('Photograph') 64bit
Writing library                          : libebml v1.3.3 + libmatroska v1.4.4
DURATION                                 : 02:08:12.736000000
NUMBER_OF_FRAMES                         : 721194
NUMBER_OF_BYTES                          : 1451042328
_STATISTICS_WRITING_APP                  : mkvmerge v9.2.0 ('Photograph') 64bit
_STATISTICS_WRITING_DATE_UTC             : 2016-08-19 16:14:34
_STATISTICS_TAGS                         : BPS DURATION NUMBER_OF_FRAMES NUMBER_OF_BYTES

Video
ID                                       : 1
Format                                   : VC-1
Codec ID                                 : V_MS/VFW/FOURCC / WVC1
Codec ID/Hint                            : Microsoft
Duration                                 : 2h 8mn
Bit rate                                 : 16.6 Mbps
Width                                    : 1 920 pixels
Height                                   : 1 080 pixels
Display aspect ratio                     : 16:9
Frame rate mode                          : Constant
Frame rate                               : 23.976 fps
Color space                              : YUV
Chroma subsampling                       : 4:2:0
Bit depth                                : 8 bits
Scan type                                : Progressive
Compression mode                         : Lossy
Bits/(Pixel*Frame)                       : 0.333
Stream size                              : 14.8 GiB (83%)
Default                                  : Yes
Forced                                   : No

Audio #1
ID                                       : 2
Format                                   : DTS
Format/Info                              : Digital Theater Systems
Mode                                     : 16
Format settings, Endianness              : Big
Codec ID                                 : A_DTS
Duration                                 : 2h 8mn
Bit rate mode                            : Constant
Bit rate                                 : 1 509 Kbps
Channel(s)                               : 6 channels
Channel positions                        : Front: L C R, Side: L R, LFE
Sampling rate                            : 48.0 KHz
Bit depth                                : 24 bits
Compression mode                         : Lossy
Stream size                              : 1.35 GiB (8%)
Language                                 : German
Default                                  : Yes
Forced                                   : No

Audio #2
ID                                       : 3
Format                                   : DTS
Format/Info                              : Digital Theater Systems
Mode                                     : 16
Format settings, Endianness              : Big
Codec ID                                 : A_DTS
Duration                                 : 2h 8mn
Bit rate mode                            : Constant
Bit rate                                 : 1 509 Kbps
Channel(s)                               : 6 channels
Channel positions                        : Front: L C R, Side: L R, LFE
Sampling rate                            : 48.0 KHz
Bit depth                                : 24 bits
Compression mode                         : Lossy
Stream size                              : 1.35 GiB (8%)
Language                                 : English
Default                                  : No
Forced                                   : No

Text #1
ID                                       : 4
Format                                   : UTF-8
Codec ID                                 : S_TEXT/UTF8
Codec ID/Info                            : UTF-8 Plain Text
Language                                 : German
Default                                  : No
Forced                                   : No

Text #2
ID                                       : 5
Format                                   : UTF-8
Codec ID                                 : S_TEXT/UTF8
Codec ID/Info                            : UTF-8 Plain Text
Language                                 : English
Default                                  : No
Forced                                   : No

Menu
00:00:00.000                             : :00:00:00.000
00:07:19.898                             : :00:07:19.898
00:13:23.344                             : :00:13:23.344
00:20:59.049                             : :00:20:59.049
00:30:36.960                             : :00:30:36.960
00:40:02.150                             : :00:40:02.150
00:45:16.088                             : :00:45:16.088
00:51:30.963                             : :00:51:30.963
01:02:06.598                             : :01:02:06.598
01:11:33.664                             : :01:11:33.664
01:20:43.964                             : :01:20:43.964
01:30:36.139                             : :01:30:36.139
01:34:21.155                             : :01:34:21.155
01:41:35.381                             : :01:41:35.381
01:48:10.234                             : :01:48:10.234
01:50:19.530                             : :01:50:19.530

Beschreibung:
Basic.Instinct.1992.German.BluRay.1080p.DL.DTS.VC-1.Remux-iND
Ein Mann stirbt einen grauenvollen Tod - ans Bett gefesselt, von einem Eismeißel mehrfach durchbohrt. Bei den Ermittlungen gerät der abgebrühte Cop Nick Curran (Michael Douglas) in den Bann von Catherine Tramell (Sharon Stone), der Hauptverdächtigen und Geliebten des Ermordeten. Sie ist eine erfolgreiche Schriftstellerin, ihre fiktiven Kriminalstories werden auf makabre Weise Wirklichkeit: Im Bett werden Männer im verwundbarsten Moment getötet. So auch in ihrem neuesten Krimi, in dem ein Cop das Opfer wird. Von ihrer unbändigen Erotik leidenschaftlich angezogen, verfällt Nick der eiskalten Blondine. Er ist fest davon überzeugt, alles im Griff zu haben. Doch sein Leben gerät außer Kontrolle. Der Versuch, seinen Pflichten in diesem Mordfall nachzukommen, scheitert an Catherines aggressiver und besitzergreifender Sexualität. Obwohl der Profi ahnt, daß auch er ihr Opfer wird, setzt er alles auf's Spiel....
Direct Download Links | DDL-Links für Basic Instinct BD

Ähnliche Releases der Kategorie