Alice.im.Wunderland.Hinter.den.Spiegeln.2016.German.DL.1080p.BluRay.AVC-AVC4D DDL Download

29. September 2016 von
Alice.im.Wunderland.Hinter.den.Spiegeln.2016.German.DL.1080p.BluRay.AVC-AVC4D Deep-Warez DDL Download
Aufrufe: 111 Hits
Vote 4 Us
Release:
Alice im Wunderland Hinter den Spiegeln BD
Genre:
Fantasy
Größe:
29560 MB
Passwort:
Deep-Warez.org
Sprachen:
Video Codec:
MPEG-4 H.264 / AVC
Audio Stream:
DTS 5.1
Bewertung:
Video Vorschau:
Online Stream:
Info:
Zeige NFOVerberge NFO
General
Unique ID                                : 192341036756291641172382990035393303414 (0x90B38945DE11BB1E90CC2FCD7CF1D376)
Complete name                            : F:DownloadsAIWHDS2016GD1BA-AVC-5GAlice im Wunderland Hinter den Spiegeln 2016 German DL 1080p BluRay AVC - AVC4Dalice.im.wunderland.hinter.den.spiegeln.2016.german.dl.1080p.bluray.avc-avc4d.mkv
Format                                   : Matroska
Format version                           : Version 4 / Version 2
File size                                : 29.2 GiB
Duration                                 : 1 h 52 min
Overall bit rate mode                    : Variable
Overall bit rate                         : 37.0 Mb/s
Encoded date                             : UTC 2016-09-27 20:03:58
Writing application                      : mkvmerge v8.5.0 ('Vanishing Act') 64bit
Writing library                          : libebml v1.3.1 + libmatroska v1.4.2

Video
ID                                       : 1
Format                                   : AVC
Format/Info                              : Advanced Video Codec
Format profile                           : High@L4.1
Format settings, CABAC                   : Yes
Format settings, ReFrames                : 4 frames
Codec ID                                 : V_MPEG4/ISO/AVC
Duration                                 : 1 h 52 min
Bit rate mode                            : Variable
Bit rate                                 : 30.0 Mb/s
Maximum bit rate                         : 34.0 Mb/s
Width                                    : 1 920 pixels
Height                                   : 1 080 pixels
Display aspect ratio                     : 16:9
Frame rate mode                          : Constant
Frame rate                               : 23.976 (24000/1001) FPS
Color space                              : YUV
Chroma subsampling                       : 4:2:0
Bit depth                                : 8 bits
Scan type                                : Progressive
Bits/(Pixel*Frame)                       : 0.602
Stream size                              : 23.6 GiB (81%)
Title                                    : alice.im.wunderland.hinter.den.spiegeln.2016.german.dl.1080p.bluray.avc-avc4d
Default                                  : Yes
Forced                                   : No

Audio #1
ID                                       : 2
Format                                   : DTS
Format/Info                              : Digital Theater Systems
Format profile                           : HRA / Core
Mode                                     : 16
Format settings, Endianness              : Big
Codec ID                                 : A_DTS
Duration                                 : 1 h 52 min
Bit rate mode                            : Constant
Bit rate                                 : 2 046 kb/s / 1 509 kb/s
Channel(s)                               : 6 channels
Channel positions                        : Front: L C R, Side: L R, LFE
Sampling rate                            : 48.0 kHz
Frame rate                               : 93.750 FPS (512 spf)
Bit depth                                : 24 bits
Compression mode                         : Lossy
Stream size                              : 1.61 GiB (6%)
Title                                    : ger
Language                                 : German
Default                                  : Yes
Forced                                   : No

Audio #2
ID                                       : 3
Format                                   : DTS
Format/Info                              : Digital Theater Systems
Format profile                           : MA / Core
Mode                                     : 16
Format settings, Endianness              : Big
Codec ID                                 : A_DTS
Duration                                 : 1 h 52 min
Bit rate mode                            : Variable / Constant
Bit rate                                 : 4 965 kb/s / 1 509 kb/s
Channel(s)                               : 8 channels / 6 channels
Channel positions                        : Front: L C R, Side: L R, Back: L R, LFE / Front: L C R, Side: L R, LFE
Sampling rate                            : 48.0 kHz
Frame rate                               : 93.750 FPS (512 spf)
Bit depth                                : 24 bits
Compression mode                         : Lossless / Lossy
Stream size                              : 3.92 GiB (13%)
Title                                    : eng.dts
Language                                 : English
Default                                  : No
Forced                                   : No

Text #1
ID                                       : 4
Format                                   : UTF-8
Codec ID                                 : S_TEXT/UTF8
Codec ID/Info                            : UTF-8 Plain Text
Duration                                 : 1 h 42 min
Bit rate                                 : 0 b/s
Count of elements                        : 5
Stream size                              : 142 Bytes (0%)
Title                                    : german forced
Language                                 : German
Default                                  : Yes
Forced                                   : Yes

Text #2
ID                                       : 5
Format                                   : UTF-8
Codec ID                                 : S_TEXT/UTF8
Codec ID/Info                            : UTF-8 Plain Text
Duration                                 : 3 s 3 ms
Bit rate                                 : 98 b/s
Count of elements                        : 2
Stream size                              : 37.0 Bytes (0%)
Title                                    : english forced
Language                                 : English
Default                                  : No
Forced                                   : Yes

Menu
00:00:00.000                             : en:00:00:00.000
00:04:33.190                             : en:00:04:33.190
00:07:24.235                             : en:00:07:24.235
00:12:07.435                             : en:00:12:07.435
00:16:39.790                             : en:00:16:39.790
00:22:47.616                             : en:00:22:47.616
00:24:59.623                             : en:00:24:59.623
00:30:18.233                             : en:00:30:18.233
00:35:29.794                             : en:00:35:29.794
00:41:32.990                             : en:00:41:32.990
00:45:20.051                             : en:00:45:20.051
00:51:35.676                             : en:00:51:35.676
00:54:11.039                             : en:00:54:11.039
00:57:40.123                             : en:00:57:40.123
01:04:18.521                             : en:01:04:18.521
01:09:18.988                             : en:01:09:18.988
01:12:46.279                             : en:01:12:46.279
01:18:07.391                             : en:01:18:07.391
01:23:20.245                             : en:01:23:20.245
01:27:34.749                             : en:01:27:34.749
01:32:15.947                             : en:01:32:15.947
01:36:40.461                             : en:01:36:40.461
01:40:12.590                             : en:01:40:12.590
01:43:14.814                             : en:01:43:14.814
Beschreibung:
Alice.im.Wunderland.Hinter.den.Spiegeln.2016.German.DL.1080p.BluRay.AVC-AVC4D
Alice Kingsleigh (Mia Wasikowska) hat die letzten Jahre damit zugebracht, in die Fußstapfen ihres Vaters zu treten und über die sieben Weltmeere zu segeln. Wieder zurück in London findet sie einen magischen Spiegel und kehrt in die fantastische Welt von Unterland zurück. Dort trifft sie auf alte Bekannte: das Weiße Kaninchen (Michael Sheen), Absolem (Alan Rickman), die Grinsekatze (Stephen Fry) und natürlich den Verrückten Hutmacher (Johnny Depp), der aber nicht mehr er selbst ist – er hat sein Mehrsein verloren. Um ihn zu retten, schickt die Weiße Königin (Anne Hathaway) Alice los, nach der Chronosphäre zu suchen, einer Metallkugel im Inneren der Großen Uhr, von der alle Zeit ausgeht. Auf ihrer Reise in die Vergangenheit trifft Alice auf Freunde - und Feinde - in verschiedenen Stadien ihres Lebens. Es ist ein gefahrenvoller Wettlauf mit der Zeit, um den Verrückten Hutmacher zu retten, bevor sein letztes Stündlein geschlagen hat… im wahrsten Sinne des Wortes!
Direct Download Links | DDL-Links für Alice im Wunderland Hinter den Spiegeln BD

Ähnliche Releases der Kategorie